Jawai Bapu Zindabad * 2009 * 1CD * DVDRiP * x264 * AAC * Mar - Forums
SDMTEAM
Main | Sign Up | Login Welcome Guest | RSS
[ New messages · Members · Forum rules · Search · RSS ]
Page 1 of 11
Forums » ..:: Movies, Songs, Television and Streaming ::.. » All Songs Request » Jawai Bapu Zindabad * 2009 * 1CD * DVDRiP * x264 * AAC * Mar
Jawai Bapu Zindabad * 2009 * 1CD * DVDRiP * x264 * AAC * Mar
ShivaDate: Tuesday, 31-05-2011, 2:04 PM | Message # 1
SDM Mega Member
Group: Users
Messages: 172
Awards: 1
Reputation: 2
Status:
Jawai Bapu Zindabad * 2009 * 1CD * DVDRiP * x264 * AAC * Marathi [RS]

Cast :-

Bharat Jadhav, Vijay Chavhan, Chetan Dalvi, Pushkar Shrotri, Kishori Ambiye,
Nayana Aapte and Shweta Mehandale

Info :-

Code:

Video

Format : AVC
Format/Info : Advanced Video Codec
Format profile : High@L2.2
Format settings, CABAC : Yes
Format settings, ReFrames : 5 frames
Codec ID : avc1
Codec ID/Info : Advanced Video Coding
Duration : 1h 54mn
Bit rate mode : Variable
Bit rate : 781 Kbps
Maximum bit rate : 3 200 Kbps
Width : 640 pixels
Height : 320 pixels
Display aspect ratio : 2.000
Frame rate mode : Constant
Frame rate : 25.000 fps
Resolution : 8 bits
Colorimetry : 4:2:0
Scan type : Progressive
Bits/(Pixel*Frame) : 0.153
Stream size : 640 MiB (92%)

Audio

Format : AAC
Format/Info : Advanced Audio Codec
Format version : Version 4
Format profile : LC
Format settings, SBR : Yes
Format settings, PS : No
Codec ID : 40
Duration : 1h 54mn
Bit rate mode : Variable
Bit rate : 64.0 Kbps
Maximum bit rate : 74.3 Kbps
Channel(s) : 2 channels
Channel positions : Front: L R
Sampling rate : 44.1 KHz
Stream size : 52.6 MiB (8%)

Source - DVD9
Credits go to Nord @ MDG..

Links :-

Available for users only

 
Forums » ..:: Movies, Songs, Television and Streaming ::.. » All Songs Request » Jawai Bapu Zindabad * 2009 * 1CD * DVDRiP * x264 * AAC * Mar
Page 1 of 11
Search:

Copyright MyCorp © 2017