Zenda * 2010 * 1CD * DVDRiP * XviD * E-Subs * Marathi [RS] - Forums
SDMTEAM
Main | Sign Up | Login Welcome Guest | RSS
[ New messages · Members · Forum rules · Search · RSS ]
Page 1 of 11
Forums » ..:: Movies, Songs, Television and Streaming ::.. » Download Other Languages Movies » Zenda * 2010 * 1CD * DVDRiP * XviD * E-Subs * Marathi [RS]
Zenda * 2010 * 1CD * DVDRiP * XviD * E-Subs * Marathi [RS]
ShivaDate: Tuesday, 31-05-2011, 1:23 PM | Message # 1
SDM Mega Member
Group: Users
Messages: 172
Awards: 1
Reputation: 2
Status:
Cast :-

Pushkar Shotri, Rajesh Shrungarpure, Santosh Juvekar, Sidharth Chandekar, Sachit Patil, Chinmay Mandlekar,Tejashree Pradhan, Neha Joshi, Shubhangi Gokhale and Ujwala Jog.

Synopsis :-

‘Zenda’ is based on the frustration of today’s youth, who are confused with the changing political scenario in the state. These youths who belong to different sectors of the society have their own dreams but fall into a dilemma due to happening of an event in politics.

Info :-

Code:

Video

Codec ID : XVID
Codec ID/Hint : XviD
Duration : 2h 1mn
Bit rate : 735 Kbps
Width : 608 pixels
Height : 256 pixels
Display aspect ratio : 2.35:1
Frame rate : 29.970 fps
Resolution : 8 bits
Colorimetry : 4:2:0
Scan type : Progressive
Bits/(Pixel*Frame) : 0.158
Stream size : 639 MiB (92%)
Writing library : XviD 1.2.1

Audio

Codec ID/Hint : MP3
Duration : 2h 1mn
Bit rate mode : Constant
Bit rate : 64.0 Kbps
Channel(s) : 2 channels
Sampling rate : 24.0 KHz
Stream size : 55.6 MiB (8%)
Alignment : Aligned on interleaves
Interleave, duration : 912 ms (27.34 video frames)

Source - DVD
Credits go to Nord @ MDG..

Links :-

Available for users only
 
Forums » ..:: Movies, Songs, Television and Streaming ::.. » Download Other Languages Movies » Zenda * 2010 * 1CD * DVDRiP * XviD * E-Subs * Marathi [RS]
Page 1 of 11
Search:

Copyright MyCorp © 2017