SDMTEAM
Main | Sign Up | Login Welcome Guest | RSS
[ New messages · Members · Forum rules · Search · RSS ]
Page 1 of 11
Forums » ..:: Movies, Songs, Television and Streaming ::.. » Download Other Languages Movies » Jau Tithe Khau * 2007 * 1CD * DVDRiP * XviD * Marathi * Come
Jau Tithe Khau * 2007 * 1CD * DVDRiP * XviD * Marathi * Come
ShivaDate: Tuesday, 31-05-2011, 1:47 PM | Message # 1
SDM Mega Member
Group: Users
Messages: 172
Awards: 1
Reputation: 2
Status:
Jau Tithe Khau * 2007 * 1CD * DVDRiP * XviD * Marathi * Comedy [RS]

cast :-

Makrand Anaspure, Chetan Dalvi, Deepali Sayyad, Ujwala Jog
and Kuldeep Pawar.

Plot :-

Mukund (Makrand Anaspure) is hard working and intelligent young man, who is unable to find a job. He faces a lot of issues in his day to day life for the things which he has to depend on. He is asked by officers at different posts for he bribe like at electricity board, pension office. Enraged by this behavior and the corrupt political system, he decides to fight against the system. He is helped by his girlfriend Lekha (Deepali Syed) and few friends. Based upon this help he applies for a government scheme in which the person is entitled for loan approval on getting a well dug. By bribing all the officers in the loop, he manages to get the loan approved without even digging the well.At the climax he files a case in the police station and court
about his well getting stolen. However ince well is a structure nobody can prove that it was stolen. But since Mukund had created the proofs for his actions after bribing, nobody could stand and ultimately Mukund wins the Lawsuit.

Rip Info :-

Code:

Video

Codec ID : XVID
Codec ID/Hint : XviD
Duration : 2h 5mn
Bit rate : 706 Kbps
Width : 608 pixels
Height : 256 pixels
Display aspect ratio : 2.35:1
Frame rate : 25.000 fps
Resolution : 8 bits
Colorimetry : 4:2:0
Scan type : Progressive
Bits/(Pixel*Frame) : 0.181
Stream size : 635 MiB (91%)
Writing library : XviD 1.2.1

Audio

Codec ID/Hint : MP3
Duration : 2h 5mn
Bit rate mode : Constant
Bit rate : 64.0 Kbps
Channel(s) : 2 channels
Sampling rate : 24.0 KHz
Stream size : 57.6 MiB (8%)
Alignment : Aligned on interleaves
Interleave, duration : 957 ms (23.91 video frames)
Interleave, preload duration : 216 ms

Source - DVD9
Credits to the original ripper @ MDG..

Note :- The source had variable borders...

Links :-

Available for users only

Enjoy..
 
Forums » ..:: Movies, Songs, Television and Streaming ::.. » Download Other Languages Movies » Jau Tithe Khau * 2007 * 1CD * DVDRiP * XviD * Marathi * Come
Page 1 of 11
Search:

Copyright MyCorp © 2017