SDMTEAM
Main | Sign Up | Login Welcome Guest | RSS
[ New messages · Members · Forum rules · Search · RSS ]
Page 1 of 11
Forums » ..:: Movies, Songs, Television and Streaming ::.. » Download Other Languages Movies » Baykochya * Nakalatch * 2008 * x264 * 1CD * DVDRiP * E-Subs
Baykochya * Nakalatch * 2008 * x264 * 1CD * DVDRiP * E-Subs
ShivaDate: Tuesday, 31-05-2011, 2:31 PM | Message # 1
SDM Mega Member
Group: Users
Messages: 172
Awards: 1
Reputation: 2
Status:
Cast :-

Sunil Barve, Manjusha Godse, Madhavi Nimkar, Kshitij Zarapkar, Asit Redij,
Abha Velankar and Sandesh Rane.

Info :-

Code:

Video

ID : 1
Format : AVC
Format/Info : Advanced Video Codec
Format profile : High@L3.0
Format settings, CABAC : Yes
Format settings, ReFrames : 5 frames
Codec ID : avc1
Codec ID/Info : Advanced Video Coding
Duration : 2h 16mn
Bit rate mode : Variable
Bit rate : 646 Kbps
Maximum bit rate : 3 722 Kbps
Width : 608 pixels
Height : 448 pixels
Display aspect ratio : 4:3
Frame rate mode : Constant
Frame rate : 29.970 fps
Resolution : 8 bits
Colorimetry : 4:2:0
Scan type : Progressive
Bits/(Pixel*Frame) : 0.079
Stream size : 630 MiB (91%)
Title : Imported with GPAC 0.4.6-DEV (build 1)
Writing library : x264 core 80 r1376M 3feaec2

Audio

ID : 2
Format : AAC
Format/Info : Advanced Audio Codec
Format version : Version 4
Format profile : LC
Format settings, SBR : Yes
Format settings, PS : No
Codec ID : 40
Duration : 2h 16mn
Bit rate mode : Variable
Bit rate : 63.8 Kbps
Maximum bit rate : 76.3 Kbps
Channel(s) : 6 channels
Channel positions : Front: L C R, Rear: L R, LFE
Sampling rate : 48.0 KHz
Stream size : 62.4 MiB (9%)

Source - DVD9
Credits to the original Ripper @ MDG..

Links :-

Available for users only

 
Forums » ..:: Movies, Songs, Television and Streaming ::.. » Download Other Languages Movies » Baykochya * Nakalatch * 2008 * x264 * 1CD * DVDRiP * E-Subs
Page 1 of 11
Search:

Copyright MyCorp © 2017