SDMTEAM
Main | Sign Up | Login Welcome Guest | RSS
[ New messages · Members · Forum rules · Search · RSS ]
Page 1 of 11
Forums » ..:: Movies, Songs, Television and Streaming ::.. » Download Other Languages Movies » Samaantar * 2009 * 1CD * DVDRiP * XviD * E-subs * Marathi
Samaantar * 2009 * 1CD * DVDRiP * XviD * E-subs * Marathi
ShivaDate: Tuesday, 31-05-2011, 2:32 PM | Message # 1
SDM Mega Member
Group: Users
Messages: 172
Awards: 1
Reputation: 2
Status:
Samaantar * 2009 * 1CD * DVDRiP * XviD * E-subs * Marathi

Cast :-

Amol Palekar, Sharmila Tagore, Samir Dharmadhikari, Radhika Apte,
Ashwarya Narkar, Vandana Gupte and Makarand Deshpade.

Synopsis :-

‘samaantar’ talks about a simple lost and found tale of a man and a woman, but in an artistic manner. Keshav Vaze( Amol Palekar) a sixty year old successful industrialist expresses his desire to retire from business, when he feels that as a guardian of his brother’s children, he has done his duty and has now reached a stage to retire from his life too. Keshav, who as a youngster is a mute witness to a major tragedy at his village with the death of his near and dear ones, takes up the responsibility to support his brother’s children, sacrificing his own life.

‘Samaantar’ unfolds the mystery behind his decision of calling for early declaration from life, when he visits Kolkutta on an invitation from a medical foundation, where he has donated a huge sum for construction of a Hospital. He meets Kshama,(Sharmila Tagore ) his long lost beloved, who has been living a silent life along with her son, who is a Psychiatrist. Kshama is living like a patient still under trauma, who does not talk to anyone but does her job as a sculptor. Even her son, with whom she converses very little, is not able to understand the reason behind such a behaviour.

‘Samaantar’ does not bring out the past relationship between the two in their first meeting after years, but unfolds the same in the very next meeting, when Vaze’s adopted daughter Rewa brings him to Kolkatta , for a change, after noticing his withdrawal symptoms from the family members. It is at this stage, the script reveals the background of the relationship between the two.

Rip Info :-

Code:

Video

ID : 0
Format : MPEG-4 Visual
Format profile : Advanced Simple@L5
Format settings, BVOP : Yes
Format settings, QPel : Yes
Format settings, GMC : 3 warppoints
Format settings, Matrix : Default (H.263)
Muxing mode : Packed bitstream
Codec ID : XVID
Codec ID/Hint : XviD
Duration : 1h 38mn
Bit rate : 916 Kbps
Width : 624 pixels
Height : 336 pixels
Display aspect ratio : 1.857
Frame rate : 29.970 fps
Resolution : 8 bits
Colorimetry : 4:2:0
Scan type : Progressive
Bits/(Pixel*Frame) : 0.146
Stream size : 643 MiB (93%)
Writing library : XviD 1.2.1

Audio

ID : 1
Format : MPEG Audio
Format version : Version 2
Format profile : Layer 3
Mode : Joint stereo
Format_Settings_ModeExtension : MS Stereo
Codec ID : 55
Codec ID/Hint : MP3
Duration : 1h 38mn
Bit rate mode : Constant
Bit rate : 64.0 Kbps
Channel(s) : 2 channels
Sampling rate : 24.0 KHz
Stream size : 44.9 MiB (7%)
Alignment : Aligned on interleaves
Interleave, duration : 867 ms (25.98 video frames)
Interleave, preload duration : 216 ms
Title : Samaantar NTSC T80 2_0ch 192Kbps DELAY 0ms
Writing library : LAME3.98r

Source - DVD
Credits to the original Ripper..

Links :-

Available for users only

 
Forums » ..:: Movies, Songs, Television and Streaming ::.. » Download Other Languages Movies » Samaantar * 2009 * 1CD * DVDRiP * XviD * E-subs * Marathi
Page 1 of 11
Search:

Copyright MyCorp © 2017