SDMTEAM
Main | Sign Up | Login Welcome Guest | RSS
[ New messages · Members · Forum rules · Search · RSS ]
Page 1 of 11
Forums » ..:: Movies, Songs, Television and Streaming ::.. » Download Other Languages Movies » Chiranjeev Aais 1CD DVDRiP x264 * AAC * Marathi * Drama [RS]
Chiranjeev Aais 1CD DVDRiP x264 * AAC * Marathi * Drama [RS]
ShivaDate: Tuesday, 31-05-2011, 2:34 PM | Message # 1
SDM Mega Member
Group: Users
Messages: 172
Awards: 1
Reputation: 2
Status:
Chiranjeev Aais 1CD DVDRiP x264 * AAC * Marathi * Drama [RS]
Cast :-

Kunaal Limye, Bhagayshree Desai, Uday Laagu, Asha Taare, Upendra Daate
and Suhasini Deshpande.

Info :-

Code:

Video

ID : 1
Format : AVC
Format/Info : Advanced Video Codec
Format profile : High@L3.0
Format settings, CABAC : Yes
Format settings, ReFrames : 3 frames
Codec ID : avc1
Codec ID/Info : Advanced Video Coding
Duration : 2h 31mn
Bit rate mode : Variable
Bit rate : 579 Kbps
Maximum bit rate : 1 402 Kbps
Width : 608 pixels
Height : 448 pixels
Display aspect ratio : 4:3
Frame rate mode : Constant
Frame rate : 23.976 fps
Resolution : 8 bits
Colorimetry : 4:2:0
Scan type : Progressive
Bits/(Pixel*Frame) : 0.089
Stream size : 626 MiB (90%)
Writing library : x264 core 68 r1183M f21daff

Audio

ID : 2
Format : AAC
Format/Info : Advanced Audio Codec
Format version : Version 4
Format profile : LC
Format settings, SBR : Yes
Format settings, PS : No
Codec ID : 40
Duration : 2h 31mn
Bit rate mode : Variable
Bit rate : 64.0 Kbps
Maximum bit rate : 72.5 Kbps
Channel(s) : 2 channels
Channel positions : L R
Sampling rate : 48.0 KHz
Stream size : 69.2 MiB (10%)

Source - DVD
Credits to the original Ripper..

Links :-

Available for users only

 
Forums » ..:: Movies, Songs, Television and Streaming ::.. » Download Other Languages Movies » Chiranjeev Aais 1CD DVDRiP x264 * AAC * Marathi * Drama [RS]
Page 1 of 11
Search:

Copyright MyCorp © 2017