SDMTEAM
Main | Sign Up | Login Welcome Guest | RSS
[ New messages · Members · Forum rules · Search · RSS ]
Page 1 of 11
Forums » ..:: Movies, Songs, Television and Streaming ::.. » Download Other Languages Movies » Ek Daav DhobiPacchad (2009)
Ek Daav DhobiPacchad (2009)
ShivaDate: Tuesday, 31-05-2011, 2:36 PM | Message # 1
SDM Mega Member
Group: Users
Messages: 172
Awards: 1
Reputation: 2
Status:
Ek Daav DhobiPacchad (2009)

File Information:-

Code:

Format : AVI
Format/Info : Audio Video Interleave
Format profile : OpenDML
File size : 691 MiB
Duration : 2h 8mn
Overall bit rate : 755 Kbps
Writing application : AVI-Mux GUI 1.17.8, Aug 30 2008 12:36:58

Video
Format : MPEG-4 Visual
Format profile : Streaming Video@L1
Format settings, BVOP : Yes
Format settings, QPel : No
Format settings, GMC : 3 warppoints
Format settings, Matrix : Default
Muxing mode : Packed bitstream
Codec ID : XVID
Codec ID/Hint : XviD
Duration : 2h 8mn
Bit rate : 655 Kbps
Width : 656 pixels
Height : 272 pixels
Display aspect ratio : 2.412
Frame rate : 25.000 fps
Resolution : 24 bits
Colorimetry : 4:2:0
Scan type : Progressive
Bits/(Pixel*Frame) : 0.147
Stream size : 600 MiB (87%)
Writing library : XviD 1.2.0.dev47 (UTC 2006-11-01)

Audio
Format : MPEG Audio
Format version : Version 1
Format profile : Layer 3
Codec ID : 55
Codec ID/Hint : MP3
Bit rate mode : Constant
Bit rate : 96.0 Kbps
Minimum bit rate : 96.0 Kbps
Channel(s) : 2 channels
Sampling rate : 32.0 KHz
Resolution : 16 bits
Stream size : 87.9 MiB (13%)
Alignment : Aligned on interleaves
Interleave, duration : 931 ms (23.27 video frames)
Interleave, preload duration : 216 ms
Title : edd final xvid-2
Writing library : LAME3.98r
Encoding settings : CBR

Credits to the original ripper..

Links:-

Available for users only

 
Forums » ..:: Movies, Songs, Television and Streaming ::.. » Download Other Languages Movies » Ek Daav DhobiPacchad (2009)
Page 1 of 11
Search:

Copyright MyCorp © 2017