Captain Phillips 2013 CAM XViD-UNiQUE - Forums
SDMTEAM
Main | Sign Up | Login Welcome Guest | RSS
[ New messages · Members · Forum rules · Search · RSS ]
Page 1 of 11
Forums » ..:: Main Download Sections ::.. » Torrent » Captain Phillips 2013 CAM XViD-UNiQUE
Captain Phillips 2013 CAM XViD-UNiQUE
imarionDate: Monday, 28-10-2013, 3:48 PM | Message # 1
SDM Special Member
Group: Friends
Messages: 110
Awards: 2
Reputation: 0
Status:


Genre : Action / Adventure / Biography / Drama / Thriller

Plot : Captain Phillips is a multi-layered examination of the 2009
hijacking of the U.S. container ship Maersk Alabama by a crew of Somali
pirates. It is - through director Paul Greengrass's distinctive lens -
simultaneously a pulse-pounding thriller, and a complex portrait of the
myriad effects of globalization. The film focuses on the relationship
between the Alabama's commanding officer, Captain Richard Phillips (two
time Academy Award?-winner Tom Hanks), and the Somali pirate captain,
Muse (Barkhad Abdi), who takes him hostage. Phillips and Muse are set on
an unstoppable collision course when Muse and his crew target Phillips'
unarmed ship; in the ensuing standoff, 145 miles off the Somali coast,
both men will find themselves at the mercy of forces beyond their
control.

Captain Phillips 2013 CAM XViD UNiQUE

Format: AVI
Format/Info: Audio Video Interleave
File size: 1.40 GiB
Duration: 2h 7mn
Overall bit rate: 1 573 Kbps
Writing application: VirtualDubMod 1.5.10.2 (build 2540/release)
Writing library: VirtualDubMod build 2540/release

Video
ID: 0
Format: MPEG-4 Visual
Format profile: Advanced Simple@L5
Format settings, BVOP: 2
Format settings, QPel: No
Format settings, GMC: No warppoints
Format settings, Matrix: Default (H.263)
Muxing mode: Packed bitstream
Codec ID: XVID
Codec ID/Hint: XviD
Duration: 2h 7mn
Bit rate: 1 433 Kbps
Width: 712 pixels
Height: 332 pixels
Display aspect ratio: 2.145
Frame rate: 29.970 fps
Color space: YUV
Chroma subsampling: 4:2:0
Bit depth: 8 bits
Scan type: Progressive
Compression mode: Lossy
Bits/(Pixel*Frame): 0.202
Stream size: 1.27 GiB (91%)
Writing library: XviD 64

Audio
ID: 1
Format: MPEG Audio
Format version: Version 1
Format profile: Layer 3
Codec ID: 55
Codec ID/Hint: MP3
Duration: 2h 7mn
Bit rate mode: Constant
Bit rate: 128 Kbps
Channel(s): 2 channels
Sampling rate: 48.0 KHz
Compression mode: Lossy
Stream size: 116 MiB (8%)
Alignment: Split accross interleaves
Interleave, duration: 33 ms (1.00 video frame)
Interleave, preload duration: 500 ms

Download Torrent:

Captain Phillips 2013 CAM XViD-UNiQUE
 
Forums » ..:: Main Download Sections ::.. » Torrent » Captain Phillips 2013 CAM XViD-UNiQUE
Page 1 of 11
Search:

Copyright MyCorp © 2016