Killer Toon 2013 720p BRRip x264-Fastbet99 - Forums
SDMTEAM
Main | Sign Up | Login Welcome Guest | RSS
[ New messages · Members · Forum rules · Search · RSS ]
Page 1 of 11
Forums » ..:: Main Download Sections ::.. » Torrent » Killer Toon 2013 720p BRRip x264-Fastbet99
Killer Toon 2013 720p BRRip x264-Fastbet99
imarionDate: Monday, 04-11-2013, 6:16 PM | Message # 1
SDM Special Member
Group: Friends
Messages: 110
Awards: 2
Reputation: 0
Status:


Killer Toon (2013)

IMDB Info : http://www.imdb.com/title/tt2973516/

Source : CHD (thanks)
Complete name : Killer.Toon.2013.720p.BRRip.x264-Fastbet99.mp4
Format : MPEG-4
Format profile : Base Media
Codec ID : isom
File size : 1.24 GiB
Duration : 1h 44mn
Overall bit rate mode : Variable
Overall bit rate : 1 700 Kbps

Video
ID : 1
Format : AVC
Format/Info : Advanced Video Codec
Format profile : High@L4.1
Format settings, CABAC : Yes
Format settings, ReFrames : 4 frames
Codec ID : avc1
Codec ID/Info : Advanced Video Coding
Duration : 1h 44mn
Bit rate : 1 602 Kbps
Maximum bit rate : 9 668 Kbps
Width : 1 280 pixels
Height : 690 pixels
Display aspect ratio : 1.85:1
Frame rate mode : Constant
Frame rate : 23.976 fps
Color space : YUV
Chroma subsampling : 4:2:0
Bit depth : 8 bits
Scan type : Progressive
Bits/(Pixel*Frame) : 0.076
Stream size : 1.16 GiB (94%)
Writing library : x264 core 133 r2334 a3ac64b

Audio
ID : 2
Format : AAC
Format/Info : Advanced Audio Codec
Format profile : LC
Codec ID : 40
Duration : 1h 44mn
Bit rate mode : Variable
Bit rate : 96.0 Kbps
Maximum bit rate : 152 Kbps
Channel(s) : 2 channels
Channel positions : Front: L R
Sampling rate : 48.0 KHz
Compression mode : Lossy
Stream size : 71.4 MiB (6%)
Encoder : Fastbet99



Download Torrent:

Killer Toon 2013 720p BRRip x264-Fastbet99
 
Forums » ..:: Main Download Sections ::.. » Torrent » Killer Toon 2013 720p BRRip x264-Fastbet99
Page 1 of 11
Search:

Copyright MyCorp © 2016