Cult 2013 720p BRRip x264-Fastbet99 - Forums
SDMTEAM
Main | Sign Up | Login Welcome Guest | RSS
[ New messages · Members · Forum rules · Search · RSS ]
Page 1 of 11
Forums » ..:: Main Download Sections ::.. » Torrent » Cult 2013 720p BRRip x264-Fastbet99
Cult 2013 720p BRRip x264-Fastbet99
imarionDate: Thursday, 14-11-2013, 4:53 PM | Message # 1
SDM Special Member
Group: Friends
Messages: 110
Awards: 2
Reputation: 0
Status:


Cult (2013)

IMDB Info : http://www.imdb.com/title/tt2281002

Source : PHD (Thanks)
Complete name : Cult.2013.720p.BRRip.x264-Fastbet99.mp4
Format : MPEG-4
Format profile : Base Media
Codec ID : isom
File size : 1.07 GiB
Duration : 1h 24mn
Overall bit rate mode : Variable
Overall bit rate : 1 825 Kbps

Video
ID : 1
Format : AVC
Format/Info : Advanced Video Codec
Format profile : High@L4.1
Format settings, CABAC : Yes
Format settings, ReFrames : 4 frames
Codec ID : avc1
Codec ID/Info : Advanced Video Coding
Duration : 1h 24mn
Bit rate : 1 726 Kbps
Maximum bit rate : 5 543 Kbps
Width : 1 280 pixels
Height : 720 pixels
Display aspect ratio : 16:9
Frame rate mode : Constant
Frame rate : 23.976 fps
Color space : YUV
Chroma subsampling : 4:2:0
Bit depth : 8 bits
Scan type : Progressive
Bits/(Pixel*Frame) : 0.078
Stream size : 1.02 GiB (95%)
Writing library : x264 core 133 r2334 a3ac64b

Audio
ID : 2
Format : AAC
Format/Info : Advanced Audio Codec
Format profile : LC
Codec ID : 40
Duration : 1h 24mn
Bit rate mode : Variable
Bit rate : 96.0 Kbps
Maximum bit rate : 166 Kbps
Channel(s) : 2 channels
Channel positions : Front: L R
Sampling rate : 48.0 KHz
Compression mode : Lossy
Stream size : 57.7 MiB (5%)
Language : Japanese

Text
ID : 3
Format : Timed Text
Codec ID : tx3g
Duration : 1h 21mn
Bit rate mode : Variable
Bit rate : 35 bps
Stream size : 21.1 KiB (0%)
Language : English
Encoder : Fastbet99



Download Torrent:

Cult 2013 720p BRRip x264-Fastbet99


Message edited by imarion - Thursday, 14-11-2013, 4:55 PM
 
Forums » ..:: Main Download Sections ::.. » Torrent » Cult 2013 720p BRRip x264-Fastbet99
Page 1 of 11
Search:

Copyright MyCorp © 2016