Last.Vegas.2013.HDCAM.XviD.AC3-RARBG - Forums
SDMTEAM
Main | Sign Up | Login Welcome Guest | RSS
[ New messages · Members · Forum rules · Search · RSS ]
Page 1 of 11
Forums » ..:: Main Download Sections ::.. » Torrent » Last.Vegas.2013.HDCAM.XviD.AC3-RARBG
Last.Vegas.2013.HDCAM.XviD.AC3-RARBG
imarionDate: Tuesday, 31-12-2013, 0:23 AM | Message # 1
SDM Special Member
Group: Friends
Messages: 110
Awards: 2
Reputation: 0
Status:


Info:

Format : AVI

Format/Info : Audio Video Interleave

File size : 1 012 MiB

Duration : 1h 40mn

Overall bit rate : 1 404 Kbps

Movie name : Downloaded from RARBG.COM

Writing application : Lavf55.21.100

Comment : Downloaded from RARBG.COM

Video

ID : 0

Format : xvid

Codec ID : xvid

Duration : 1h 40mn

Bit rate : 1 198 Kbps

Width : 672 pixels

Height : 352 pixels

Display aspect ratio : 1.909

Frame rate : 29.970 fps

Bits/(Pixel*Frame) : 0.169

Stream size : 863 MiB (85%)

Audio

ID : 1

Format : MPEG Audio

Format version : Version 1

Format profile : Layer 3

Mode : Joint stereo

Mode extension : MS Stereo

Codec ID : 55

Codec ID/Hint : MP3

Duration : 1h 40mn

Bit rate mode : Constant

Bit rate : 192 Kbps

Channel(s) : 2 channels

Sampling rate : 48.0 KHz

Compression mode : Lossy

Stream size : 138 MiB (14%)

Alignment : Aligned on interleaves

Interleave, duration : 24 ms (0.72 video frame)

Download Torrent:

Last.Vegas.2013.HDCAM.XviD.AC3-RARBG
 
Forums » ..:: Main Download Sections ::.. » Torrent » Last.Vegas.2013.HDCAM.XviD.AC3-RARBG
Page 1 of 11
Search:

Copyright MyCorp © 2016