47 Ronin 2013 CAM XViD-MORS - Forums
SDMTEAM
Main | Sign Up | Login Welcome Guest | RSS
[ New messages · Members · Forum rules · Search · RSS ]
Page 1 of 11
Forums » ..:: Main Download Sections ::.. » Torrent » 47 Ronin 2013 CAM XViD-MORS
47 Ronin 2013 CAM XViD-MORS
imarionDate: Tuesday, 14-01-2014, 7:18 PM | Message # 1
SDM Special Member
Group: Friends
Messages: 110
Awards: 2
Reputation: 0
Status:
http://www.imdb.com/title/tt1335975

General

Format : AVI

Format/Info : Audio Video Interleave

File size : 696 MiB

Duration : 1h 49mn

Overall bit rate : 892 Kbps

Writing library : VirtualDub build 30080/release

Video

ID : 0

Format : MPEG-4 Visual

Format profile : Advanced Simple@L5

Format settings, BVOP : 2

Format settings, QPel : No

Format settings, GMC : No warppoints

Format settings, Matrix : Default (H.263)

Codec ID : XVID

Codec ID/Hint : XviD

Duration : 1h 49mn

Bit rate : 770 Kbps

Width : 640 pixels

Height : 272 pixels

Display aspect ratio : 2.35:1

Frame rate : 25.000 fps

Color space : YUV

Chroma subsampling : 4:2:0

Bit depth : 8 bits

Scan type : Progressive

Compression mode : Lossy

Bits/(Pixel*Frame) : 0.177

Stream size : 601 MiB (86%)

Writing library : XviD 64

Audio

ID : 1

Format : MPEG Audio

Format version : Version 1

Format profile : Layer 3

Mode : Joint stereo

Mode extension : MS Stereo

Codec ID : 55

Codec ID/Hint : MP3

Duration : 1h 49mn

Bit rate mode : Constant

Bit rate : 112 Kbps

Channel(s) : 2 channels

Sampling rate : 48.0 KHz

Compression mode : Lossy

Stream size : 87.5 MiB (13%)

Alignment : Split accross interleaves

Interleave, duration : 40 ms (1.00 video frame)

Interleave, preload duration : 500 ms

Download Torrent:

47 Ronin 2013 CAM XViD-MORS
 
Forums » ..:: Main Download Sections ::.. » Torrent » 47 Ronin 2013 CAM XViD-MORS
Page 1 of 11
Search:

Copyright MyCorp © 2016