The White Storm 2013 BRRip 720p x264 AAC - PRiSTiNE - Forums
SDMTEAM
Main | Sign Up | Login Welcome Guest | RSS
[ New messages · Members · Forum rules · Search · RSS ]
Page 1 of 11
Forums » ..:: Main Download Sections ::.. » Torrent » The White Storm 2013 BRRip 720p x264 AAC - PRiSTiNE
The White Storm 2013 BRRip 720p x264 AAC - PRiSTiNE
imarionDate: Friday, 14-02-2014, 6:09 PM | Message # 1
SDM Special Member
Group: Friends
Messages: 110
Awards: 2
Reputation: 0
Status:


The.White.Storm.2013.BRRip.720p.x264.AAC-PRiSTiNE

Genre: Action | Drama
http://www.imdb.com/title/tt2957774/

Format : MPEG-4
File size : 849 MiB
Duration : 2h 14mn
Overall bit rate : 884 Kbps

Video
Format : AVC
Width : 1 280 pixels
Height : 544 pixels
Display aspect ratio : 2.35:1
Frame rate mode : Constant
Frame rate : 24.000 fps
Bit depth : 8 bits
Stream size : 768 MiB (90%)
Writing library : x264 core 140 r2377

Audio
Format : AAC
Bit rate : 80.0 Kbps
Channel(s) : 2 channels
Channel positions : Front: L R
Sampling rate : 48.0 KHz
Stream size : 76.8 MiB (9%)
Language : Chinese (Mandarin)

Subtitle : Yes (English)

Torrent:

The White Storm 2013 BRRip 720p x264 AAC - PRiSTiNE
 
Forums » ..:: Main Download Sections ::.. » Torrent » The White Storm 2013 BRRip 720p x264 AAC - PRiSTiNE
Page 1 of 11
Search:

Copyright MyCorp © 2016